<?xml version="1.0" standalone="no"?>
<!DOCTYPE svg PUBLIC "-//W3C//DTD SVG 1.1//EN" "http://www.w3.org/Graphics/SVG/1.1/DTD/svg11.dtd">
<svg xmlns="http://www.w3.org/2000/svg">
<metadata>Copyright (C) 2017 by original authors @ fontello.com</metadata>
<defs>
<font id="budget" horiz-adv-x="1000" >
<font-face font-family="budget" font-weight="400" font-stretch="normal" units-per-em="1000" ascent="850" descent="-150" />
<missing-glyph horiz-adv-x="1000" />
<glyph glyph-name="ok" unicode="&#xe800;" d="M875 588l-535-600-340 338 123 124 196-195 420 457z" horiz-adv-x="875" />

<glyph glyph-name="down-open-mini" unicode="&#xe801;" d="M405 470q22 26 48 0 26-22 0-48l-196-192q-22-22-48 0l-196 192q-26 26 0 48 24 24 50 0l170-156z" horiz-adv-x="466" />

<glyph glyph-name="agents-01" unicode="&#xe802;" d="M919 144c-102 64-178 98-247 107h0c48 57 77 134 77 207v109c0 137-112 248-249 248s-249-111-249-248v-109c0-73 29-150 77-207h-1c-68-9-144-43-247-107-29-16-46-51-46-90v-151c0-11 6-18 15-18h901c9 0 16 7 16 18v151c0 37-19 72-47 90z m-476-54l-74 120c31-25 68-41 107-46l-33-74z m57 51l37-87h-76l39 87z m24 23c39 5 75 22 106 46l-73-120-33 74z m-241 403c0 119 97 217 217 217 120 0 218-97 218-217v-109c0-147-110-259-211-264-2 1-4 2-6 2-3 0-5-1-7-2-101 5-211 117-211 264v109z m-218-513c0 24 11 46 30 57 99 63 170 94 234 103l93-153-14-139h-343v132z m375-138l12 107h96l13-107h-121z m495 6h-342l-8 65-7 76 93 153c64-11 137-42 235-103 18-13 29-35 29-59v-132z" horiz-adv-x="1000" />

<glyph glyph-name="contact-01" unicode="&#xe803;" d="M938 663h-876c-22 0-41-21-41-46v-534c0-25 18-46 41-46h876c23 0 41 21 41 46v534c0 25-18 46-41 46z m-56-35l-376-310c-2-2-4-2-6-2-2 0-4 0-6 2l-376 310h764z m-830-535v524c0 8 6 11 10 11 2 0 4-1 6-2l288-237-304-296z m26-21l303 296 94-78c7-6 16-9 25-9s17 3 24 9l94 78 303-296h-843z m870 21l-304 296 288 237c2 1 4 2 6 2 4 0 10-4 10-11v-524z" horiz-adv-x="1000" />

<glyph glyph-name="country-01" unicode="&#xe804;" d="M30 487c61 207 254 352 470 352 40 0 81-5 120-15 10-2 16-12 14-22-5-22 3-35 11-48 5-8 11-18 11-28 0-77-18-117-51-117-15 0-54-18-67-42-5-9-5-17 1-26 10-15 19-32 26-47 9-15 23-43 30-44 12 6 27 36 37 56 17 34 31 62 54 60 46-2 64-41 77-69 7-14 14-29 21-33 13-7 88 0 147 20-40 128-136 233-260 284-10 4-15 15-11 25 4 9 15 14 25 10 140-58 248-179 287-325 2-9-2-19-11-22-58-25-162-42-194-26-19 10-29 31-38 51-13 27-22 44-41 47-6-6-15-26-22-39-15-30-31-61-53-72-7-4-13-5-19-5-28 0-45 34-62 65-7 15-15 30-24 44-13 19-14 42-2 64 18 35 68 62 99 62 0 0 14 11 14 79-1 1-3 5-6 8-7 12-19 31-18 58-31 7-63 10-95 10-199 0-378-134-433-325-3-10-14-16-24-13-10 3-16 13-13 23z m754-136c22 0 40-7 54-20 10-10 14-20 14-31 0-19-14-32-28-45-12-12-25-24-30-40-14-40-53-55-83-55-19 0-36 6-46 15-14 14-45 30-76 45-21 11-26 29-23 41 4 19 24 32 46 32 9 0 18-2 26-7 5 0 14 11 18 16 12 15 29 35 55 35 2 0 9 3 15 4 15 4 37 10 58 10z m27-47c-6 6-15 9-27 9-16 0-34-5-48-9-10-3-18-5-25-5-8 0-17-11-25-21-12-15-25-31-46-31-6 0-12 2-18 5-6 3-13 3-16 1h0c35-17 68-34 86-52 2-1 9-4 20-4 6 0 37 1 46 29 9 25 27 42 41 55 6 6 15 15 16 19 0 0-2 2-4 4z m174 114c-2 10-11 18-22 16-10-1-17-11-16-21 3-21 4-42 4-62 0-248-199-449-446-452-67 43-129 95-101 160 50 117 3 161-17 179l-4 4c-6 6-12 9-18 13-13 8-17 11-10 33 5 15 12 21 19 29 18 19 31 37 31 90 0 31-16 56-43 68-31 14-73 9-95-11-13-12-18-29-12-46 13-41-18-98-75-141-15-12-19-6-22-4-17 20-15 75-2 89 9 9 12 21 8 31-15 34-113 32-132 31-9-1-16-8-18-17-2-19-3-37-3-57 0-226 152-421 371-475 10-2 20 4 23 14 2 10-4 20-14 23-202 49-343 230-343 438 0 13 1 25 2 37 32 0 59-4 72-8-21-34-19-100 8-130 19-22 46-23 73-3 72 54 106 126 87 183 0 2-1 4 2 7 10 9 35 13 54 5 14-6 21-17 21-34 0-42-8-51-20-64-9-9-20-21-27-44-17-50 10-67 26-76 4-3 8-5 11-8l4-4c17-16 48-45 8-137-45-106 71-179 120-210 3-2 7-3 10-3 270 0 489 219 489 489 1 23 0 45-3 68z m-450-349c11-11 20-26 25-40 7-21 4-39-9-52-11-11-27-18-45-18s-35 7-46 18c-12 12-14 30-7 49 10 24 38 51 61 51 8 0 16-3 21-8z m-11-52c-2 7-7 15-12 21-5-3-14-10-21-21-5-8-5-13-4-14 8-7 30-8 38 1 1 2 1 7-1 13z" horiz-adv-x="1000" />

<glyph glyph-name="clock-01" unicode="&#xe805;" d="M500 828c-264 0-478-214-478-478s214-478 478-478 478 215 478 478-215 478-478 478z m0-924c-246 0-446 200-446 446s200 446 446 446 446-200 446-446-200-446-446-446z m1 441h214v-33h-246v316h32v-283z" horiz-adv-x="1000" />

<glyph glyph-name="search" unicode="&#xe806;" d="M643 386q0 103-73 176t-177 74-177-74-73-176 73-177 177-73 177 73 73 177z m286-465q0-29-22-50t-50-21q-30 0-50 21l-191 191q-100-69-223-69-80 0-153 31t-125 84-84 125-31 153 31 152 84 126 125 84 153 31 153-31 125-84 84-126 31-152q0-123-69-223l191-191q21-21 21-51z" horiz-adv-x="928.6" />

<glyph glyph-name="car-01" unicode="&#xe807;" d="M225 293c-45 0-81-34-81-76s36-77 81-77c45 0 81 34 81 77 0 42-36 76-81 76z m0-123c-27 0-49 21-49 46s22 46 49 46c27 0 48-20 48-46 0-25-21-46-48-46z m744 123v92c0 6-4 12-11 14l-91 29c-34 55-82 108-186 125h-1c-193 25-338-16-431-122-107-2-218-34-218-92v-46c-9 0-16-7-16-15v-61c0-9 7-16 16-16h64c9 0 17 7 17 16 0 59 50 107 113 107 62 0 113-48 113-107 0-9 7-16 16-16h292c8 0 16 7 16 16 0 59 51 107 113 107 62 0 113-48 113-107 0-9 8-16 16-16h65c9 0 17 7 17 16v61c0 8-8 15-17 15z m-209 201c28-16 49-38 67-63h-68l1 63z m-195 36c34 0 71-2 111-7 19-3 36-8 51-14l0-78h-162v99z m-33-2v-97h-239c60 58 139 91 239 97z m421-296h-33c-8 68-70 122-145 122s-137-54-144-122h-261c-8 68-70 122-145 122s-136-54-144-122h-33v30c8 0 16 7 16 16v45h16c9 0 16 7 16 16s-7 15-16 15h-9c21 22 88 46 186 46h596l84-27v-20h-16c-9 0-17-6-17-15s8-15 17-15h16v-46c0-8 7-15 16-15v-30z m-178 61c-45 0-81-34-81-76s37-77 81-77c45 0 81 34 81 77 0 42-36 76-81 76z m0-123c-27 0-49 21-49 46s22 46 49 46c27 0 49-20 49-46 0-25-22-46-49-46z" horiz-adv-x="1000" />

<glyph glyph-name="left-open-mini" unicode="&#xe808;" d="M252 180q26-26 0-48-26-26-48 0l-192 194q-24 24 0 50l192 194q22 26 48 0 26-22 0-48l-156-172z" horiz-adv-x="265" />

<glyph glyph-name="right-open-mini" unicode="&#xe809;" d="M13 180l158 170-158 172q-26 26 0 48 26 26 48 0l192-194q24-26 0-50l-192-194q-22-26-48 0-26 22 0 48z" horiz-adv-x="265" />

<glyph glyph-name="up-open-mini" unicode="&#xe80a;" d="M62 230q-26-22-50 0-24 24 0 50l196 190q26 26 48 0l196-190q24-26 0-50-24-22-50 0l-170 158z" horiz-adv-x="464" />

<glyph glyph-name="cancel" unicode="&#xe80b;" d="M654 349l346-346-154-154-346 346-346-346-154 154 346 346-346 346 154 154 346-346 346 346 154-154z" horiz-adv-x="1000" />

<glyph glyph-name="left-open-big" unicode="&#xe80c;" d="M452-20q26-26 0-48-26-26-48 0l-392 394q-24 24 0 50l392 394q22 26 48 0 26-22 0-48l-358-372z" horiz-adv-x="465" />

<glyph glyph-name="down-micro" unicode="&#xe80d;" d="M235 231l-235 236h471z" horiz-adv-x="471" />

<glyph glyph-name="right-open-big" unicode="&#xe80e;" d="M13-20l358 370-358 372q-26 26 0 48 26 26 48 0l392-394q24-26 0-50l-392-394q-22-26-48 0-26 22 0 48z" horiz-adv-x="465" />

<glyph glyph-name="down-open-big" unicode="&#xe80f;" d="M63 570l370-356 372 356q22 26 48 0 26-22 0-48l-396-392q-22-22-48 0l-396 392q-26 26 0 48 24 24 50 0z" horiz-adv-x="866" />

<glyph glyph-name="up-open-big" unicode="&#xe810;" d="M804 130l-372 358-370-358q-26-22-50 0-24 24 0 50l396 390q26 26 48 0l396-390q24-26 0-50-26-22-48 0z" horiz-adv-x="864" />

<glyph glyph-name="up-micro" unicode="&#xe811;" d="M471 231h-471l235 236z" horiz-adv-x="471" />

<glyph glyph-name="calander-01" unicode="&#xe812;" d="M832 739h-137v80h-30v-80h-340v80h-30v-80h-127c-53 0-97-43-97-97v-664c0-53 44-97 97-97h664c53 0 97 44 97 97v664c0 54-44 97-97 97z m-664-30h127v-74h30v74h340v-74h30v74h137c37 0 67-30 67-67v-117h-798v117c0 37 30 67 67 67z m664-798h-664c-37 0-67 30-67 67v517h798v-516c0-38-30-68-67-68z m-579 96h143v122h-143v-122z m29 92h84v-62h-84v62z m154-92h143v122h-143v-122z m30 92h83v-62h-83v62z m-213 52h143v122h-143v-122z m29 92h84v-62h-84v62z m154-92h143v122h-143v-122z m30 92h83v-62h-83v62z m138-92h143v122h-143v-122z m30 92h84v-62h-84v62z m-198 52h143v122h-143v-122z m30 92h83v-62h-83v62z m138-92h143v122h-143v-122z m30 92h84v-62h-84v62z" horiz-adv-x="1000" />

<glyph glyph-name="driver_age-01" unicode="&#xe813;" d="M867 716h-734c-63 0-115-51-115-114v-503c0-63 52-115 115-115h734c63 0 115 52 115 115v502c0 64-52 115-115 115z m-734-33h734c45 0 82-36 82-81v-40h-898v39c0 46 37 82 82 82z m734-666h-734c-45 0-82 37-82 82v430h898v-430c0-45-37-82-82-82z m-199 288h-172v34h172v-34z m-172-58h319v-33h-319v33z m203 91h116v-33h-116v33z m-362-47c22 16 37 42 37 72 0 48-40 87-88 87s-88-39-88-87c0-30 15-57 38-72-51-21-87-71-87-129v-51h31v51c0 59 48 108 108 108s107-49 107-108v-51h31v51c0 59-37 109-89 129z m-51 126c30 0 54-24 54-54 0-31-24-55-54-55s-55 25-55 55 24 54 55 54z" horiz-adv-x="1000" />

<glyph glyph-name="drop_down-01" unicode="&#xe814;" d="M923 473l-423-386-423 386h846z" horiz-adv-x="1000" />

<glyph glyph-name="kupon_code-01" unicode="&#xe815;" d="M977 818c-6 6-16 6-23 0l-60-59h-381l-478-464c-11-11-17-24-17-39 0-15 6-29 17-39l334-323c12-11 26-16 41-16 15 0 30 5 41 16l465 461v382l61 58c6 6 6 17 0 23z m-93-450l-456-452c-10-9-26-9-35 0l-335 322c-10 10-10 25 0 35l469 455h334l-79-77c-13 9-29 14-45 14-45 0-82-36-82-79s37-79 82-79c45 0 82 35 82 79 0 16-5 31-14 43l79 76v-337z m-159 207c3-3 8-5 12-5 4 0 8 2 12 5l32 31c3-6 5-13 5-20 0-26-22-47-49-47s-49 21-49 47 22 47 49 47c7 0 14-1 21-4l-32-32c-7-6-7-16-1-22z" horiz-adv-x="1000" />

<glyph glyph-name="pick_up_station-01" unicode="&#xe816;" d="M627 483a167 167 0 1 1-167-164 166 166 0 0 1 167 164z m-316 0a149 149 0 1 0 149-146 148 148 0 0 0-149 146z m575-473a413 413 0 0 1-100 33c-30 7-102 13-161 17-14 1-28 2-40 3l140 209a343 343 0 0 1 88 230c0 192-159 348-353 348s-354-156-354-348a338 338 0 0 1 58-190l169-249-31-3c-58-4-131-10-161-17a419 419 0 0 1-100-33c-27-14-41-30-41-48s14-34 41-49a413 413 0 0 1 100-33 1160 1160 0 0 1 145-22c57-6 116-8 178-8s121 2 177 8a1170 1170 0 0 1 146 22 419 419 0 0 1 100 33c26 15 40 30 40 48s-14 34-40 48z m-687 284h1l-11 14a323 323 0 0 0-64 194c0 182 150 330 335 330s334-148 334-330a325 325 0 0 0-84-217l-251-375-103 153v2h-2z m679-364a396 396 0 0 0-95-32 1200 1200 0 0 0-143-21c-56-5-115-8-176-8s-120 2-176 8a1188 1188 0 0 0-143 21 390 390 0 0 0-95 32c-20 11-31 22-31 32s11 21 31 32a396 396 0 0 0 95 31c30 7 101 13 159 18 15 1 30 2 42 3l114-168 114 169c14-2 32-3 51-4 58-5 129-11 159-18a390 390 0 0 0 95-31c20-11 31-22 31-32s-12-21-32-32z" horiz-adv-x="927" />

<glyph glyph-name="costumers-01" unicode="&#xe817;" d="M885 144c-88 55-157 87-218 101 51 58 82 138 82 213v110c0 137-112 249-249 249s-250-112-250-249v-109c0-76 31-156 82-214-61-14-129-46-218-101-29-17-47-52-47-90v-152c0-11 7-18 16-18h833c10 0 16 7 16 18v152c0 36-18 71-47 90z m-603 424c0 119 98 217 218 217s218-98 218-217v-109c0-151-115-265-218-265-103 0-218 113-218 265v109z m619-648h-802v133c0 24 11 46 29 57 100 62 171 94 235 103v2c38-32 85-53 137-53 52 0 98 21 137 53 64-11 137-43 234-103 19-13 30-35 30-59v-133z" horiz-adv-x="1000" />

<glyph glyph-name="link-01" unicode="&#xe818;" d="M975 548c0-8-4-15-10-22l-443-443c-7-6-14-10-22-10-8 0-16 4-22 10l-443 443c-7 7-10 14-10 22 0 8 3 16 10 22l47 48c7 6 14 9 22 9 8 0 16-3 22-9l374-374 374 374c6 6 14 9 22 9 8 0 15-3 22-9l47-48c6-6 10-14 10-22z" horiz-adv-x="1000" />

<glyph glyph-name="days-01" unicode="&#xe819;" d="M832 739h-137v80h-30v-80h-340v80h-30v-80h-127c-53 0-97-43-97-97v-664c0-53 44-97 97-97h664c53 0 97 44 97 97v664c0 54-44 97-97 97z m-664-30h127v-74h30v74h340v-74h30v74h137c37 0 67-30 67-67v-117h-798v117c0 37 30 67 67 67z m664-798h-664c-37 0-67 30-67 67v517h798v-516c0-38-30-68-67-68z" horiz-adv-x="1000" />

<glyph glyph-name="customers_service-01" unicode="&#xe81a;" d="M983 446c0 167-129 306-297 322-6 21-25 36-48 36h-276c-23 0-42-15-48-36-168-16-297-155-297-322v-259c0-55 46-99 102-99h78c24 0 43 18 43 42v275c0 22-19 42-43 42h-78c-25 0-48-10-66-24v23c0 149 115 273 264 288 8-17 25-29 45-29h276c20 0 37 12 45 29 150-15 264-139 264-288v-23c-17 14-40 24-65 24h-79c-23 0-43-19-43-42v-275c0-23 19-42 43-42h79c25 0 48 9 65 24v-13c0-66-55-120-122-120h-214c-8 28-34 48-64 48h-65c-36 0-66-29-66-65s30-65 66-65h65c30 0 56 20 64 47h214c87 0 157 69 157 155l1 347z m-793-35h7c4 0 7-3 7-7v-275c0-3-3-7-7-7h-7v289z m-71 0h36v-288h-36c-37 0-66 29-66 64v160c0 35 29 64 66 64z m519 329h-276c-8 0-15 6-15 14 0 8 7 15 15 15h276c8 0 15-6 15-15s-7-14-15-14z m-91-809h-64c-17 0-31 14-31 31 0 16 14 30 31 30h64c17 0 31-14 31-30 0-17-14-31-31-31z m263 191h-7c-4 0-7 4-7 7v275c0 4 3 7 7 7h7v-289z m137 65c0-35-29-64-65-64h-37v288h37c36 0 65-29 65-64v-160z" horiz-adv-x="1000" />

<glyph glyph-name="key-01" unicode="&#xe81b;" d="M827 680c-44 43-109 55-167 30-6-3-10-8-12-15 0-1 0-2 0-4 0-5 2-10 6-14l174-172c5-4 12-6 18-5 7 2 12 6 15 12 24 57 10 125-34 168z m4-121l-124 122c33 4 67-6 92-30 24-24 36-58 32-92z m66 188c-97 97-255 97-352 0l-95-95c-28-28-42-64-42-100s14-73 42-101l1-1-415-415c-4-4-6-9-6-15v-1l5-115c0-10 8-19 19-19l115-5c7 0 14 4 18 10l26 44 51 32c2 2 4 4 6 6l33 51 50 33c3 1 5 4 6 6l33 51 51 33c3 1 5 3 6 6l33 50 51 33c1 1 2 2 3 3l63 63 1-1c55-56 146-56 201 0l95 95c48 47 74 110 74 176 0 67-26 129-73 176z m-826-735l409 409 15-15-423-422-1 28z m439 257l-53-34c-3-2-5-4-6-6l-33-51-51-33c-2-1-4-3-6-6l-33-51-51-33c-2-1-4-4-6-6l-33-51-50-33c-3-1-5-4-7-6l-22-38-85 4v4l449 448 48-47-61-61z m358 155l-95-95c-19-19-45-30-72-30-27 0-52 10-72 30l-151 151c-39 39-39 104 0 144l96 95c81 81 213 81 294 0l15 14-15-14c40-40 61-92 61-148 1-55-21-108-61-147z" horiz-adv-x="1000" />

<glyph glyph-name="mobile_contuct-01" unicode="&#xe81c;" d="M684 340c0-11-9-20-20-20h-327c-12 0-21 9-21 20 0 12 9 21 21 21h327c11 0 20-9 20-21z m17 153h-401c-12 0-21-9-21-21 0-11 9-21 21-21h401c11 0 20 10 20 21s-9 21-20 21z m288-71c0-102-50-198-141-271-85-67-196-107-315-114v-123c0-8-5-15-12-19-2-1-6-2-9-2-4 0-9 1-12 4l-297 219c-26 16-50 33-72 53l0 0c-77 70-120 160-120 253 0 104 51 201 145 274 92 72 214 111 344 111s251-39 343-111c94-73 146-170 146-274z m-42 0c0 189-201 343-447 343s-447-154-447-343c0-81 38-160 106-222 20-18 42-34 67-49l2-1 263-194v102c0 11 9 21 21 21 117 2 227 39 310 105 80 64 125 149 125 238z" horiz-adv-x="1000" />

<glyph glyph-name="phone" unicode="&#xe81d;" d="M721 201c-177-302-371-332-380-333-18-3-36-3-55 0-21 2-41 8-59 16l0-1-45 27c-33 20-44 62-25 94l94 161c19 32 61 42 93 22l79-49c4 3 7 7 11 10 34 33 81 78 124 152 43 74 60 138 72 184 1 5 3 10 4 14l-53 33-26 16c-33 20-43 62-25 94l94 161c19 32 61 42 93 22l45-28-1-1c15-12 30-27 42-45 11-16 20-33 26-50 50-137 19-281-108-499z" horiz-adv-x="1000" />

<glyph glyph-name="question-01" unicode="&#xe81e;" d="M500 789c-242 0-439-196-439-439 0-242 196-439 439-439s439 197 439 439c0 243-196 439-439 439z m25-657c-10-10-23-15-40-15s-30 5-39 14-15 22-15 39 5 30 14 39c9 9 23 14 40 14s31-5 40-14c9-9 14-22 14-38s-5-30-14-39z m102 280c-11-16-30-34-59-55-20-15-33-26-37-34s-8-17-8-30v-18h-82v23c0 20 5 37 13 52 8 14 24 30 46 45s36 29 43 38c7 10 10 21 10 34s-4 22-14 29c-10 7-24 11-41 11-31 0-66-10-106-30l-33 67c46 26 94 38 145 38 42 0 76-10 101-30s37-47 37-81c0-23-5-42-15-59z" horiz-adv-x="1000" />

<glyph glyph-name="quit_btn-01" unicode="&#xe81f;" d="M564 350l401-386-63-64-402 388-402-388-63 64 401 386-401 387 63 63 402-387 402 387 63-63-401-387z" horiz-adv-x="1000" />

<glyph glyph-name="search-01" unicode="&#xe820;" d="M437 684v-41c-134 0-242-101-242-226h-44c0 147 128 267 286 267z m529-777c-4-4-10-6-15-6-6 0-11 2-15 6l-234 219c-72-57-164-91-265-91-226 0-409 171-409 382 0 210 183 382 409 382 226 0 410-172 410-382 0-102-44-195-114-264l233-217c9-8 9-21 0-29z m-162 510c0 188-165 341-367 341-202 0-366-153-366-341 0-189 164-342 366-342 202 0 367 153 367 342z" horiz-adv-x="1000" />

<glyph glyph-name="share-01" unicode="&#xe821;" d="M825 129c-46 0-86-23-111-57l-406 233c2 11 5 22 5 34 0 12-3 23-5 34l406 233c25-35 65-57 111-57 77 0 138 61 138 137 0 76-61 137-138 137s-137-61-137-137c0-15 3-30 7-44 0 0 0 0-1 0l-403-231c-24 38-67 65-117 65-76 0-138-62-138-137 0-76 62-138 138-138 50 0 93 26 117 66l403-231 1 0c-5-14-8-29-8-44 0-76 62-137 138-137s138 61 138 137c0 75-61 137-138 137z m0 653c54 0 97-43 97-96 0-54-43-97-97-97s-97 44-97 97 44 96 97 96z m-650-540c-54 0-97 44-97 97 0 53 43 96 97 96 53 0 97-44 97-96s-44-97-97-97z m650-347c-53 0-97 44-97 97 0 53 44 96 97 96 54 0 97-43 97-96 0-54-43-97-97-97z" horiz-adv-x="1000" />

<glyph glyph-name="facebook-01" unicode="&#xe822;" d="M575 497v91c0 38 5 47 43 47 51 0 98 0 98 0l21 0 4 183-19 3c-1 0-48 6-111 6-178 0-241-118-241-220v-110h-113v-196h113v-427h205v427h159l9 196h-168z m118-154h-160v-427h-121v427h-112v112h112v152c0 86 53 177 200 177 36 0 67-2 86-3l-2-104c-19 0-48 1-78 1-75 0-85-46-85-90v-133h165l-5-112z" horiz-adv-x="1000" />
</font>
</defs>
</svg>
